الجمعة، 17 سبتمبر، 2010

تحميل فيلم The American 2010 مباشرة DVD

The American (2010)


Image

The American 2010 CAM XVID LKRG



File Size:651mb

Video:
ID : 0
Format : MPEG-4 Visual
Format profile : Advanced Simple@L5
Format settings, BVOP : Yes
Format settings, QPel : No
Format settings, GMC : No warppoints
Format settings, Matrix : Default (H.263)
Muxing mode : Packed bitstream
Codec ID : XVID
Codec ID/Hint : XviD
Duration : 1h 33mn
Bit rate : 685 Kbps
Width : 720 pixels
Height : 304 pixels
Display aspect ratio : 2.35:1
Frame rate : 25.000 fps
Resolution : 8 bits
Colorimetry : 4:2:0
Scan type : Progressive
Bits/(Pixel*Frame) : 0.125
Stream size : 461 MiB (72%)
Writing library : XviD 1.2.1 (UTC 2008-12-04)

Audio: ID : 1
Format : MPEG Audio
Format version : Version 1
Format profile : Layer 3
Mode : Joint stereo
Format_Settings_ModeExtension : MS Stereo
Codec ID : 55
Codec ID/Hint : MP3
Duration : 1h 33mn
Bit rate mode : Constant
Bit rate : 256 Kbps
Channel(s) : 2 channels
Sampling rate : 48.0 KHz
Stream size : 172 MiB (27%)
Alignment : Split accross interleaves
Interleave, duration : 496 ms (12.41 video frames)
Interleave, preload duration : 500 ms

Language:English

Plot: Alone among assassins, Jack is a master craftsman. When a job in Sweden ends more harshly than expected for this American abroad, he vows to his contact Larry that his next assignment will be his last. Jack reports to the Italian countryside, where he holes up in a small town and relishes being away from death for a spell. The assignment, as specified by a Belgian woman, Mathilde, is in the offing as a weapon is constructed. Surprising himself, Jack seeks out the friendship of local priest Father Benedetto and pursues romance with local woman Clara. But by stepping out of the shadows, Jack may be tempting fate.



Image
Image
Image
Image


Download:




http://hotfile.com/dl/69726841/97ade76/American.LKRG-WarezShot.com.part1.rar.html
http://hotfile.com/dl/69726965/de5282c/American.LKRG-WarezShot.com.part2.rar.html
http://hotfile.com/dl/69726776/2301bf8/American.LKRG-WarezShot.com.part3.rar.html
http://hotfile.com/dl/69726488/51c9a19/American.LKRG-WarezShot.com.part4.rar.html




http://www.fileserve.com/file/fTF3Hs2/American.LKRG-WarezShot.com.part1.rar
http://www.fileserve.com/file/RRjKXgX/American.LKRG-WarezShot.com.part2.rar
http://www.fileserve.com/file/G7hr4Eh/American.LKRG-WarezShot.com.part3.rar
http://www.fileserve.com/file/d53Qvmb/American.LKRG-WarezShot.com.part4.rar


http://rapidshare.com/files/419352693/American.LKRG-WarezShot.com.part1.rar
http://rapidshare.com/files/419352639/American.LKRG-WarezShot.com.part2.rar
http://rapidshare.com/files/419352684/American.LKRG-WarezShot.com.part3.rar
http://rapidshare.com/files/419352632/American.LKRG-WarezShot.com.part4.rar

ليست هناك تعليقات:

إرسال تعليق

شات فرعون





شرح كيفية التعامل مع الشات

برجاء التزام الآداب العامة وعدم التلفظ بألفاظ خارجة وإلا سوف يعرض للحظر من الشات

إذا ظهر مربع اسود بدلاً من صندوق الدردشة، قم بتحميل أحدث إصدار من برنامج أدويي فلاش بلاير من هنا

عند الدخول لأول مرة، يقوم النظام بإختيار إسم تلقائي لك. يمكنك تغييره بالضغط على اسمك (والذى سوف فى القائمة على اليمين) ثم قم بإستبدال الاسم المكتوب بإسمك

إذا وجدت الكلام مقلوب (الكلمات العربية تظهر من الشمال الى اليمين)، اضغط هنا واختر اللغة العربية
ارسل رسائل قصيرة sms مجانيه لجميع دول العالم ببلاش دردش وشات مع احلى اصحاب